[MULTI] Zombie for Sale (2019) 1080p USA Blu-ray AVC DTS-HD MA 5.1-VEXHD

tenzin

HDTShare Admin
Joined
May 4, 2010
Messages
56,066
Reaction score
1,672
Points
11,673
Age
43
Location
Proletarya
Website
hdtshare.com


Information
When a pharmaceutical company's illegal experiments inadvertently create a zombie, the strange Park family finds it and tries to profit from it.


Code:
https://www.imdb.com/title/tt9765144/

DISC INFO:

Disc Title:     ZOMBIE FOR SALE
Disc Label:     Zombie.for.Sale.2019.COMPLETE.BLURAY-VEXHD
Disc Size:      48,956,951,064 bytes
Protection:     AACS
BDInfo:         0.7.5.5

PLAYLIST REPORT:

Name:                   00002.MPLS
Length:                 1:52:00.046 (h:m:s.ms)
Size:                   37,394,731,392 bytes
Total Bitrate:          44.52 Mbps

VIDEO:

Codec                   Bitrate             Description     
-----                   -------             -----------     
MPEG-4 AVC Video        33891 kbps          1080p / 23.976 fps / 16:9 / High Profile 4.1

AUDIO:

Codec                           Language        Bitrate         Description     
-----                           --------        -------         -----------     
DTS-HD Master Audio             Korean          3738 kbps       5.1 / 48 kHz /  3738 kbps / 24-bit (DTS Core: 5.1 / 48 kHz /  1509 kbps / 24-bit)
LPCM Audio                      Korean          2304 kbps       2.0 / 48 kHz /  2304 kbps / 24-bit
LPCM Audio                      English         2304 kbps       2.0 / 48 kHz /  2304 kbps / 24-bit

SUBTITLES:

Codec                           Language        Bitrate         Description     
-----                           --------        -------         -----------     
Presentation Graphics           English         21.652 kbps                     

FILES:

Name            Time In         Length          Size            Total Bitrate   
----            -------         ------          ----            -------------   
00005.M2TS      0:00:00.000     0:00:01.000     15,744          121             
00000.M2TS      0:00:01.000     1:51:58.044     37,394,699,904  44,530          
00005.M2TS      1:51:59.045     0:00:01.000     15,744          121

You must reply before you can see the hidden data contained here.

You must reply before you can see the hidden data contained here.
 

BABY

HDTshare User
Joined
Sep 30, 2017
Messages
114
Reaction score
0
Points
0
Not USA this is the GBR BluRay
 
Top