[VIP] The Courier (2020) 1080p Blu-ray AVC DTS-HD MA 5.1-MTeam

tenzin

HDTShare Admin
Joined
May 4, 2010
Messages
62,911
Reaction score
9,734
Points
11,673
Age
43
Website
hdtshare.com




In the shadow of the Cold War a letter from Oleg Penkovsky (Merab Ninidze) an agency of the Soviet Union received by M16 stating the concern of Penkovsky about world safety and his anxiety about a nuclear war, So Emily Donovan (Rachel Brosnahan) a CIA Agent reached out to MI6 Agent Dickie Franks (Angus Wright) , who recruited British salesman Greville Wynne (Benedict Cumberbatch) to be their spy.
PHP:
https://www.imdb.com/title/tt8368512

DISC INFO:

Disc Title:     The Courier - Blu-ray™
Disc Label:     The.Courier.2020.BluRay.1080p.AVC.DTS-HD.MA.5.1-MTeam
Disc Size:      44,338,936,855 bytes
Protection:     AACS
Extras:         BD-Java
BDInfo:         0.7.5.6

PLAYLIST REPORT:

Name:                   00997.MPLS
Length:                 1:52:00.755 (h:m:s.ms)
Size:                   35,325,616,128 bytes
Total Bitrate:          42.05 Mbps

VIDEO:

Codec                   Bitrate             Description    
-----                   -------             -----------    
MPEG-4 AVC Video        36215 kbps          1080p / 23.976 fps / 16:9 / High Profile 4.1

AUDIO:

Codec                           Language        Bitrate         Description    
-----                           --------        -------         -----------    
DTS-HD Master Audio             English         3489 kbps       5.1 / 48 kHz /  3489 kbps / 24-bit (DTS Core: 5.1 / 48 kHz /  1509 kbps / 24-bit)
Dolby Digital Audio             English         192 kbps        2.0 / 48 kHz /   192 kbps / DN -27dB

SUBTITLES:

Codec                           Language        Bitrate         Description    
-----                           --------        -------         -----------    
Presentation Graphics           English         30.437 kbps                    
Presentation Graphics           Spanish         30.707 kbps                    

FILES:

Name            Time In         Length          Size            Total Bitrate  
----            -------         ------          ----            -------------  
00502.M2TS      0:00:00.000     0:10:35.259     3,358,113,792   42,290          
00508.M2TS      0:10:35.259     0:00:41.207     217,700,352     42,264          
00512.M2TS      0:11:16.467     0:00:27.360     143,572,992     41,979          
00514.M2TS      0:11:43.828     0:00:26.735     139,708,416     41,805          
00509.M2TS      0:12:10.563     0:19:18.407     6,107,160,576   42,176          
00501.M2TS      0:31:28.970     0:00:43.334     227,690,496     42,034          
00515.M2TS      0:32:12.305     0:00:32.782     171,878,400     41,944          
00511.M2TS      0:32:45.088     0:00:37.412     196,700,160     42,061          
00506.M2TS      0:33:22.500     0:17:53.071     5,666,365,440   42,244          
00505.M2TS      0:51:15.572     0:00:20.353     106,967,040     42,043          
00513.M2TS      0:51:35.926     0:01:58.827     625,496,064     42,111          
00510.M2TS      0:53:34.753     0:00:23.023     119,973,888     41,688          
00503.M2TS      0:53:57.776     0:02:42.912     852,811,776     41,878          
00507.M2TS      0:56:40.688     0:00:23.940     125,927,424     42,080          
00504.M2TS      0:57:04.629     0:54:56.126     17,265,549,312  41,905

Content of this hidden block can only be seen by members of (usergroups: V.I.P.).
 

alchemist

HDTshare User
Joined
Jul 6, 2017
Messages
818
Reaction score
8
Points
18






PHP:
https://www.imdb.com/title/tt8368512

DISC INFO:

Disc Title:     The Courier - Blu-ray™
Disc Label:     The.Courier.2020.BluRay.1080p.AVC.DTS-HD.MA.5.1-MTeam
Disc Size:      44,338,936,855 bytes
Protection:     AACS
Extras:         BD-Java
BDInfo:         0.7.5.6

PLAYLIST REPORT:

Name:                   00997.MPLS
Length:                 1:52:00.755 (h:m:s.ms)
Size:                   35,325,616,128 bytes
Total Bitrate:          42.05 Mbps

VIDEO:

Codec                   Bitrate             Description   
-----                   -------             -----------   
MPEG-4 AVC Video        36215 kbps          1080p / 23.976 fps / 16:9 / High Profile 4.1

AUDIO:

Codec                           Language        Bitrate         Description   
-----                           --------        -------         -----------   
DTS-HD Master Audio             English         3489 kbps       5.1 / 48 kHz /  3489 kbps / 24-bit (DTS Core: 5.1 / 48 kHz /  1509 kbps / 24-bit)
Dolby Digital Audio             English         192 kbps        2.0 / 48 kHz /   192 kbps / DN -27dB

SUBTITLES:

Codec                           Language        Bitrate         Description   
-----                           --------        -------         -----------   
Presentation Graphics           English         30.437 kbps                   
Presentation Graphics           Spanish         30.707 kbps                   

FILES:

Name            Time In         Length          Size            Total Bitrate 
----            -------         ------          ----            ------------- 
00502.M2TS      0:00:00.000     0:10:35.259     3,358,113,792   42,290         
00508.M2TS      0:10:35.259     0:00:41.207     217,700,352     42,264         
00512.M2TS      0:11:16.467     0:00:27.360     143,572,992     41,979         
00514.M2TS      0:11:43.828     0:00:26.735     139,708,416     41,805         
00509.M2TS      0:12:10.563     0:19:18.407     6,107,160,576   42,176         
00501.M2TS      0:31:28.970     0:00:43.334     227,690,496     42,034         
00515.M2TS      0:32:12.305     0:00:32.782     171,878,400     41,944         
00511.M2TS      0:32:45.088     0:00:37.412     196,700,160     42,061         
00506.M2TS      0:33:22.500     0:17:53.071     5,666,365,440   42,244         
00505.M2TS      0:51:15.572     0:00:20.353     106,967,040     42,043         
00513.M2TS      0:51:35.926     0:01:58.827     625,496,064     42,111         
00510.M2TS      0:53:34.753     0:00:23.023     119,973,888     41,688         
00503.M2TS      0:53:57.776     0:02:42.912     852,811,776     41,878         
00507.M2TS      0:56:40.688     0:00:23.940     125,927,424     42,080         
00504.M2TS      0:57:04.629     0:54:56.126     17,265,549,312  41,905

[Hidden content]
Thanks.
 
Top