[MULTI] Rough Night in Jericho (1967) 1080p Blu-ray AVC DTS-HD MA 2.0

tenzin

HDTShare Admin
Joined
May 4, 2010
Messages
58,117
Reaction score
3,601
Points
11,673
Age
43
Website
hdtshare.com


A former deputy and a strong-willed widow are determined to stop a ruthless town boss.
Code:
https://www.imdb.com/title/tt0062218

DISC INFO:

Disc Title:     Rough Night in Jericho
Disc Label:     Rough.Night.in.Jericho.1967.1080p.Blu-ray.AVC.DTS-HD.MA.2.0
Disc Size:      35,927,668,772 bytes
Protection:     AACS
BDInfo:         0.7.5.5

PLAYLIST REPORT:

Name:                   00004.MPLS
Length:                 1:43:53.185 (h:m:s.ms)
Size:                   32,149,321,728 bytes
Total Bitrate:          41.26 Mbps

VIDEO:

Codec                   Bitrate             Description    
-----                   -------             -----------    
MPEG-4 AVC Video        37426 kbps          1080p / 23.976 fps / 16:9 / High Profile 4.1

AUDIO:

Codec                           Language        Bitrate         Description    
-----                           --------        -------         -----------    
DTS-HD Master Audio             English         1556 kbps       2.0 / 48 kHz /  1556 kbps / 16-bit (DTS Core: 2.0 / 48 kHz /  1509 kbps / 16-bit)
Dolby Digital Audio             English         192 kbps        2.0 / 48 kHz /   192 kbps / DN -31dB

SUBTITLES:

Codec                           Language        Bitrate         Description    
-----                           --------        -------         -----------    
Presentation Graphics           English         24.068 kbps                    

FILES:

Name            Time In         Length          Size            Total Bitrate  
----            -------         ------          ----            -------------  
00010.M2TS      0:00:00.000     0:00:11.010     712,704         518            
00004.M2TS      0:00:11.010     1:43:41.173     32,148,590,592  41,341          
00000.M2TS      1:43:52.184     0:00:01.000     18,432          147

You must reply before you can see the hidden data contained here.

You must reply before you can see the hidden data contained here.
 
Last edited:
Top