[RG] Never Let Me Go (2010) 1080p Blu-ray AVC DTS-HD MA 5.1-F13

tenzin

HDTShare Admin
Joined
May 4, 2010
Messages
56,035
Reaction score
1,669
Points
11,673
Age
43
Location
Proletarya
Website
hdtshare.com


Information
As children, Ruth, Kathy and Tommy spend their childhood at a seemingly idyllic English boarding school. As they grow into young adults, they find that they have to come to terms with the strength of the love they feel for each other, while preparing themselves for the haunting reality that awaits them.


Code:
https://www.imdb.com/title/tt1334260/

DISC INFO:

Disc Title:     Never Let Me Go F13 2010 1080p Blu-ray AVC DTS-HD MA [email protected]
Disc Size:      43,846,597,006 bytes
Protection:     AACS
Extras:         BD-Java
BDInfo:         0.7.5.5

PLAYLIST REPORT:

Name:                   00801.MPLS
Length:                 1:44:02.361 (h:m:s.ms)
Size:                   32,133,826,560 bytes
Total Bitrate:          41.18 Mbps

VIDEO:

Codec                   Bitrate             Description    
-----                   -------             -----------    
MPEG-4 AVC Video        31795 kbps          1080p / 23.976 fps / 16:9 / High Profile 4.1

AUDIO:

Codec                           Language        Bitrate         Description    
-----                           --------        -------         -----------    
DTS-HD Master Audio             English         3312 kbps       5.1 / 48 kHz /  3312 kbps / 24-bit (DTS Core: 5.1 / 48 kHz /  1509 kbps / 24-bit)
Dolby Digital Audio             English         448 kbps        5.1 / 48 kHz /   448 kbps / DN -31dB
DTS Audio                       French          768 kbps        5.1 / 48 kHz /   768 kbps / 24-bit
DTS Audio                       German          768 kbps        5.1 / 48 kHz /   768 kbps / 24-bit
DTS Audio                       Italian         768 kbps        5.1 / 48 kHz /   768 kbps / 24-bit
DTS Audio                       Spanish         768 kbps        5.1 / 48 kHz /   768 kbps / 24-bit

SUBTITLES:

Codec                           Language        Bitrate         Description    
-----                           --------        -------         -----------    
Presentation Graphics           English         26.957 kbps                    
Presentation Graphics           French          21.177 kbps                    
Presentation Graphics           Danish          22.772 kbps                    
Presentation Graphics           Finnish         18.278 kbps                    
Presentation Graphics           German          23.194 kbps                    
Presentation Graphics           Italian         22.265 kbps                    
Presentation Graphics           Dutch           20.490 kbps                    
Presentation Graphics           Norwegian       19.700 kbps                    
Presentation Graphics           Spanish         23.123 kbps                    
Presentation Graphics           Swedish         19.631 kbps                    

FILES:

Name            Time In         Length          Size            Total Bitrate  
----            -------         ------          ----            -------------  
00811.M2TS      0:00:00.000     0:04:06.496     1,281,705,984   41,598          
00813.M2TS      0:04:06.496     0:06:22.673     1,990,508,544   41,613          
00810.M2TS      0:10:29.170     1:33:33.190     28,861,612,032  41,134

You must reply before you can see the hidden data contained here.
 
Top