[MULTI] Network 1976 1080p BluRay x264-CiNEFiLE

bestrun

HDTShare Admin
Joined
Jul 4, 2017
Messages
23,917
Reaction score
3,240
Points
113




Code:
General
Format : Matroska
File size : 7.94 GiB
Duration : 2h 1mn
Overall bit rate : 9 374 Kbps
Encoded date : UTC 2011-02-05 07:59:44
Writing application : mkvmerge v4.5.0 (\'Speed of Light\') built on Feb 1 2011 02:10:32
Writing library : libebml v1.2.0 + libmatroska v1.1.0

Video
ID : 1
Format : AVC
Format/Info : Advanced Video Codec
Format profile : [email protected]
Format settings, CABAC : Yes
Format settings, ReFrames : 4 frames
Muxing mode : Container [email protected]
Codec ID : V_MPEG4/ISO/AVC
Duration : 2h 1mn
Bit rate : 8 433 Kbps
Nominal bit rate : 8 607 Kbps
Width : 1 920 pixels
Height : 1 072 pixels
Display aspect ratio : 16:9
Frame rate : 23.976 fps
Resolution : 8 bits
Colorimetry : 4:2:0
Scan type : Progressive
Bits/(Pixel*Frame) : 0.171
Stream size : 7.14 GiB (90%)

Audio
Language: English
ID : 2
Format : DTS
Format/Info : Digital Theater Systems
Codec ID : A_DTS
Duration : 2h 1mn
Bit rate mode : Constant
Bit rate : 754 Kbps
Channel(s) : 1 channel
Channel positions : Mono
Sampling rate : 48.0 KHz
Resolution : 24 bits
Stream size : 655 MiB (8%)

Text
ID : 3
Language: English
Format : UTF-8
Codec ID : S_TEXT/UTF8
Codec ID/Info : UTF-8 Plain Text


Code:
https://www.imdb.com/title/tt0074958/


You must reply before you can see the hidden data contained here.


You must reply before you can see the hidden data contained here.

DONATE FOR SITE COSTS |Bestrun HD Movie Collection (Daily Update)
 
Top