[MULTI] Malasana 32 (2020) 1080p MEX Blu-ray AVC DTS-HD MA 5.1

tenzin

HDTShare Admin
Joined
May 4, 2010
Messages
56,144
Reaction score
1,695
Points
11,673
Age
43
Location
Proletarya
Website
hdtshare.com


Information
1976. City of Madrid, Madrid (center to Spain and country's capital). On the early days of The Spanish Transition after General Franco's death happened the previous year, family Olmedo moves to the big city from their natal town hoping to get money and a better life for everyone. They are Manolo, a farmer hired to work in the well-known Pegaso's truck company; his wife and previous sister-in-law Candela, hired to work in the too well-known shopping mall Galerías Preciados; oldest son Pepe, a shy and stammer 20-years old young who feels as a stranger in the city unable to find job; older daughter Amparo, a 17 years-old teen forced to leave the town and her boyfriend Mateo to live in Madrid, who dreams to live in Paris working as flight attendant for Iberia's flying company; the child Rafael "Rafi", the only one son of Manolo and Candela after Candela's first husband (father of Pepe and Amparo) left them; a finally Fermín, Candela's aging and senile father with troubles of memory.


Code:
https://www.imdb.com/title/tt10952782/

DISC INFO:

Disc Label:     Malasana.32.2020.MEX.Blu-ray.1080p.AVC.DTS-HD.MA.5.1
Disc Size:      22,032,232,868 bytes
Protection:     AACS
BDInfo:         0.7.5.5

PLAYLIST REPORT:

Name:                   00002.MPLS
Length:                 1:44:41.458 (h:m:s.ms)
Size:                   21,242,701,824 bytes
Total Bitrate:          27.05 Mbps

VIDEO:

Codec                   Bitrate             Description    
-----                   -------             -----------    
MPEG-4 AVC Video        23131 kbps          1080p / 24 fps / 16:9 / High Profile 4.1

AUDIO:

Codec                           Language        Bitrate         Description    
-----                           --------        -------         -----------    
Dolby Digital Audio             Spanish         640 kbps        2.0 / 48 kHz /   640 kbps / DN -27dB
DTS-HD Master Audio             Spanish         1793 kbps       5.1 / 48 kHz /  1793 kbps / 16-bit (DTS Core: 5.1 / 48 kHz /  1509 kbps / 16-bit)

FILES:

Name            Time In         Length          Size            Total Bitrate  
----            -------         ------          ----            -------------  
00002.M2TS      0:00:00.000     1:44:41.458     21,242,701,824  27,054

You must reply before you can see the hidden data contained here.

You must reply before you can see the hidden data contained here.
 

jegan

HDTshare User
Joined
Mar 14, 2020
Messages
90
Reaction score
0
Points
6


Information
1976. City of Madrid, Madrid (center to Spain and country's capital). On the early days of The Spanish Transition after General Franco's death happened the previous year, family Olmedo moves to the big city from their natal town hoping to get money and a better life for everyone. They are Manolo, a farmer hired to work in the well-known Pegaso's truck company; his wife and previous sister-in-law Candela, hired to work in the too well-known shopping mall Galerías Preciados; oldest son Pepe, a shy and stammer 20-years old young who feels as a stranger in the city unable to find job; older daughter Amparo, a 17 years-old teen forced to leave the town and her boyfriend Mateo to live in Madrid, who dreams to live in Paris working as flight attendant for Iberia's flying company; the child Rafael "Rafi", the only one son of Manolo and Candela after Candela's first husband (father of Pepe and Amparo) left them; a finally Fermín, Candela's aging and senile father with troubles of memory.


Code:
https://www.imdb.com/title/tt10952782/

DISC INFO:

Disc Label:     Malasana.32.2020.MEX.Blu-ray.1080p.AVC.DTS-HD.MA.5.1
Disc Size:      22,032,232,868 bytes
Protection:     AACS
BDInfo:         0.7.5.5

PLAYLIST REPORT:

Name:                   00002.MPLS
Length:                 1:44:41.458 (h:m:s.ms)
Size:                   21,242,701,824 bytes
Total Bitrate:          27.05 Mbps

VIDEO:

Codec                   Bitrate             Description   
-----                   -------             -----------   
MPEG-4 AVC Video        23131 kbps          1080p / 24 fps / 16:9 / High Profile 4.1

AUDIO:

Codec                           Language        Bitrate         Description   
-----                           --------        -------         -----------   
Dolby Digital Audio             Spanish         640 kbps        2.0 / 48 kHz /   640 kbps / DN -27dB
DTS-HD Master Audio             Spanish         1793 kbps       5.1 / 48 kHz /  1793 kbps / 16-bit (DTS Core: 5.1 / 48 kHz /  1509 kbps / 16-bit)

FILES:

Name            Time In         Length          Size            Total Bitrate 
----            -------         ------          ----            ------------- 
00002.M2TS      0:00:00.000     1:44:41.458     21,242,701,824  27,054

[Hidden content]

[Hidden content]
thanks
 

txemacell

HDTshare User
Joined
Mar 10, 2011
Messages
805
Reaction score
1
Points
18


Information
1976. City of Madrid, Madrid (center to Spain and country's capital). On the early days of The Spanish Transition after General Franco's death happened the previous year, family Olmedo moves to the big city from their natal town hoping to get money and a better life for everyone. They are Manolo, a farmer hired to work in the well-known Pegaso's truck company; his wife and previous sister-in-law Candela, hired to work in the too well-known shopping mall Galerías Preciados; oldest son Pepe, a shy and stammer 20-years old young who feels as a stranger in the city unable to find job; older daughter Amparo, a 17 years-old teen forced to leave the town and her boyfriend Mateo to live in Madrid, who dreams to live in Paris working as flight attendant for Iberia's flying company; the child Rafael "Rafi", the only one son of Manolo and Candela after Candela's first husband (father of Pepe and Amparo) left them; a finally Fermín, Candela's aging and senile father with troubles of memory.


Code:
https://www.imdb.com/title/tt10952782/

DISC INFO:

Disc Label:     Malasana.32.2020.MEX.Blu-ray.1080p.AVC.DTS-HD.MA.5.1
Disc Size:      22,032,232,868 bytes
Protection:     AACS
BDInfo:         0.7.5.5

PLAYLIST REPORT:

Name:                   00002.MPLS
Length:                 1:44:41.458 (h:m:s.ms)
Size:                   21,242,701,824 bytes
Total Bitrate:          27.05 Mbps

VIDEO:

Codec                   Bitrate             Description   
-----                   -------             -----------   
MPEG-4 AVC Video        23131 kbps          1080p / 24 fps / 16:9 / High Profile 4.1

AUDIO:

Codec                           Language        Bitrate         Description   
-----                           --------        -------         -----------   
Dolby Digital Audio             Spanish         640 kbps        2.0 / 48 kHz /   640 kbps / DN -27dB
DTS-HD Master Audio             Spanish         1793 kbps       5.1 / 48 kHz /  1793 kbps / 16-bit (DTS Core: 5.1 / 48 kHz /  1509 kbps / 16-bit)

FILES:

Name            Time In         Length          Size            Total Bitrate 
----            -------         ------          ----            ------------- 
00002.M2TS      0:00:00.000     1:44:41.458     21,242,701,824  27,054

[Hidden content]

[Hidden content]
 

masoud1371

HDTshare User
Joined
Sep 24, 2019
Messages
172
Reaction score
0
Points
16


Information
1976. City of Madrid, Madrid (center to Spain and country's capital). On the early days of The Spanish Transition after General Franco's death happened the previous year, family Olmedo moves to the big city from their natal town hoping to get money and a better life for everyone. They are Manolo, a farmer hired to work in the well-known Pegaso's truck company; his wife and previous sister-in-law Candela, hired to work in the too well-known shopping mall Galerías Preciados; oldest son Pepe, a shy and stammer 20-years old young who feels as a stranger in the city unable to find job; older daughter Amparo, a 17 years-old teen forced to leave the town and her boyfriend Mateo to live in Madrid, who dreams to live in Paris working as flight attendant for Iberia's flying company; the child Rafael "Rafi", the only one son of Manolo and Candela after Candela's first husband (father of Pepe and Amparo) left them; a finally Fermín, Candela's aging and senile father with troubles of memory.


Code:
https://www.imdb.com/title/tt10952782/

DISC INFO:

Disc Label:     Malasana.32.2020.MEX.Blu-ray.1080p.AVC.DTS-HD.MA.5.1
Disc Size:      22,032,232,868 bytes
Protection:     AACS
BDInfo:         0.7.5.5

PLAYLIST REPORT:

Name:                   00002.MPLS
Length:                 1:44:41.458 (h:m:s.ms)
Size:                   21,242,701,824 bytes
Total Bitrate:          27.05 Mbps

VIDEO:

Codec                   Bitrate             Description   
-----                   -------             -----------   
MPEG-4 AVC Video        23131 kbps          1080p / 24 fps / 16:9 / High Profile 4.1

AUDIO:

Codec                           Language        Bitrate         Description   
-----                           --------        -------         -----------   
Dolby Digital Audio             Spanish         640 kbps        2.0 / 48 kHz /   640 kbps / DN -27dB
DTS-HD Master Audio             Spanish         1793 kbps       5.1 / 48 kHz /  1793 kbps / 16-bit (DTS Core: 5.1 / 48 kHz /  1509 kbps / 16-bit)

FILES:

Name            Time In         Length          Size            Total Bitrate 
----            -------         ------          ----            ------------- 
00002.M2TS      0:00:00.000     1:44:41.458     21,242,701,824  27,054

[Hidden content]

[Hidden content]
reply
 
Top