[MULTI] Helene (2020) 1080p Blu-ray AVC DTS-HD MA 5.1-HUBAA

tenzin

HDTShare Admin
Joined
May 4, 2010
Messages
57,425
Reaction score
2,244
Points
11,673
Age
43
Website
hdtshare.com


Year 1915. Helene Schjerfbeck is a forgotten artist living in the countryside with her elderly mother. Years have passed since her last exhibition, and Helene has continued to paint only for her own passion. Everything changes when an art dealer discovers Helene and her 159 amazing paintings and wants to organize a large solo exhibition. However, the most important moment in Helene's life is brought on by her encounter with amateur painter Einar Reuter, who is a passionate admirer of Helene's art. He becomes Helene's confidante and the unfulfilled love of her life. Inspired by true events, HELENE describes the life of Finland's most acclaimed painter Helene Schjerfbeck between 1915-1923.
Code:
https://www.imdb.com/title/tt9742588

DISC INFO:

Disc Title:     Helene
Disc Label:     Helene.2020.1080p.Blu-ray.AVC.DTS-HD.MA.5.1-HUBAA
Disc Size:      45,770,029,240 bytes
Protection:     AACS
BDInfo:         0.7.5.5

PLAYLIST REPORT:

Name:                   00005.MPLS
Length:                 2:01:24.318 (h:m:s.ms)
Size:                   34,634,221,632 bytes
Total Bitrate:          38.04 Mbps

VIDEO:

Codec                   Bitrate             Description    
-----                   -------             -----------    
MPEG-4 AVC Video        27946 kbps          1080p / 23.976 fps / 16:9 / High Profile 4.1

AUDIO:

Codec                           Language        Bitrate         Description    
-----                           --------        -------         -----------    
DTS-HD Master Audio             Finnish         3538 kbps       5.1 / 48 kHz /  3538 kbps / 24-bit (DTS Core: 5.1 / 48 kHz /   768 kbps / 24-bit)
LPCM Audio                      Finnish         2304 kbps       2.0 / 48 kHz /  2304 kbps / 24-bit
LPCM Audio                      Finnish         2304 kbps       2.0 / 48 kHz /  2304 kbps / 24-bit

SUBTITLES:

Codec                           Language        Bitrate         Description    
-----                           --------        -------         -----------    
Presentation Graphics           Finnish         13.097 kbps                    
Presentation Graphics           Swedish         9.551 kbps                      
Presentation Graphics           Norwegian       9.433 kbps                      
Presentation Graphics           Danish          9.537 kbps                      

FILES:

Name            Time In         Length          Size            Total Bitrate  
----            -------         ------          ----            -------------  
00000.M2TS      0:00:00.000     2:01:23.693     34,634,208,192  38,040          
00005.M2TS      2:01:23.693     0:00:00.625     13,440          161

You must reply before you can see the hidden data contained here.

You must reply before you can see the hidden data contained here.


You must reply before you can see the hidden data contained here.


You must reply before you can see the hidden data contained here.

 
Last edited by a moderator:

sorryforthis

HDTshare User
Joined
Mar 19, 2020
Messages
152
Reaction score
2
Points
18




Code:
https://www.imdb.com/title/tt9742588

DISC INFO:

Disc Title:     Helene
Disc Label:     Helene.2020.1080p.Blu-ray.AVC.DTS-HD.MA.5.1-HUBAA
Disc Size:      45,770,029,240 bytes
Protection:     AACS
BDInfo:         0.7.5.5

PLAYLIST REPORT:

Name:                   00005.MPLS
Length:                 2:01:24.318 (h:m:s.ms)
Size:                   34,634,221,632 bytes
Total Bitrate:          38.04 Mbps

VIDEO:

Codec                   Bitrate             Description   
-----                   -------             -----------   
MPEG-4 AVC Video        27946 kbps          1080p / 23.976 fps / 16:9 / High Profile 4.1

AUDIO:

Codec                           Language        Bitrate         Description   
-----                           --------        -------         -----------   
DTS-HD Master Audio             Finnish         3538 kbps       5.1 / 48 kHz /  3538 kbps / 24-bit (DTS Core: 5.1 / 48 kHz /   768 kbps / 24-bit)
LPCM Audio                      Finnish         2304 kbps       2.0 / 48 kHz /  2304 kbps / 24-bit
LPCM Audio                      Finnish         2304 kbps       2.0 / 48 kHz /  2304 kbps / 24-bit

SUBTITLES:

Codec                           Language        Bitrate         Description   
-----                           --------        -------         -----------   
Presentation Graphics           Finnish         13.097 kbps                   
Presentation Graphics           Swedish         9.551 kbps                     
Presentation Graphics           Norwegian       9.433 kbps                     
Presentation Graphics           Danish          9.537 kbps                     

FILES:

Name            Time In         Length          Size            Total Bitrate 
----            -------         ------          ----            ------------- 
00000.M2TS      0:00:00.000     2:01:23.693     34,634,208,192  38,040         
00005.M2TS      2:01:23.693     0:00:00.625     13,440          161

[Hidden content]

[Hidden content]
Thank you.
 

lookeeno

HDTshare User
Joined
Dec 17, 2014
Messages
197
Reaction score
0
Points
16




Code:
https://www.imdb.com/title/tt9742588

DISC INFO:

Disc Title:     Helene
Disc Label:     Helene.2020.1080p.Blu-ray.AVC.DTS-HD.MA.5.1-HUBAA
Disc Size:      45,770,029,240 bytes
Protection:     AACS
BDInfo:         0.7.5.5

PLAYLIST REPORT:

Name:                   00005.MPLS
Length:                 2:01:24.318 (h:m:s.ms)
Size:                   34,634,221,632 bytes
Total Bitrate:          38.04 Mbps

VIDEO:

Codec                   Bitrate             Description   
-----                   -------             -----------   
MPEG-4 AVC Video        27946 kbps          1080p / 23.976 fps / 16:9 / High Profile 4.1

AUDIO:

Codec                           Language        Bitrate         Description   
-----                           --------        -------         -----------   
DTS-HD Master Audio             Finnish         3538 kbps       5.1 / 48 kHz /  3538 kbps / 24-bit (DTS Core: 5.1 / 48 kHz /   768 kbps / 24-bit)
LPCM Audio                      Finnish         2304 kbps       2.0 / 48 kHz /  2304 kbps / 24-bit
LPCM Audio                      Finnish         2304 kbps       2.0 / 48 kHz /  2304 kbps / 24-bit

SUBTITLES:

Codec                           Language        Bitrate         Description   
-----                           --------        -------         -----------   
Presentation Graphics           Finnish         13.097 kbps                   
Presentation Graphics           Swedish         9.551 kbps                     
Presentation Graphics           Norwegian       9.433 kbps                     
Presentation Graphics           Danish          9.537 kbps                     

FILES:

Name            Time In         Length          Size            Total Bitrate 
----            -------         ------          ----            ------------- 
00000.M2TS      0:00:00.000     2:01:23.693     34,634,208,192  38,040         
00005.M2TS      2:01:23.693     0:00:00.625     13,440          161

[Hidden content]

[Hidden content]
thank you
 
Top